Être notifié de l'ajout d'un lien.

Télécharger La sorcière de Noël

Qualité HDLight 1080p MULTI
La sorcière de Noël
infos upload
synopsis
Paola a une double identité : le jour, elle est maîtresse d'école, et la nuit, elle se transforme en gentille sorcière et distribue des cadeaux de Noël aux enfants qui ont été sages durant l'année. Un jour, Paola est kidnappée par un fabricant de jouets qui l'accuse d'avoir ruiné son enfance. Ses élèves découvrent son identité et sa disparition et décident de tout faire pour sauver leur maîtresse... et Noël ! Show/hide text La.Befana.Vien.di.Notte.2018.MULTi.1080p.HDLight.AC3.x264-RDH.WwW.Zone-Telechargement.NET.mkv Format : Matroska Format version : Version 4 File size : 2.69 GiB Duration : 1 h 38 min Overall bit rate : 3 895 kb/s Encoded date : UTC 2019-12-16 17:51:56 Writing application : mkvmerge v29.0.0 ('Like It Or Not') 32-bit Writing library : libebml v1.3.6 + libmatroska v1.4.9 / Lavf58.29.100 Video ID : 1 Format : AVC Format/Info : Advanced Video Codec Format profile : Main@L4 Format settings : CABAC / 4 Ref Frames Format settings, CABAC : Yes Format settings, ReFrames : 4 frames Codec ID : V_MPEG4/ISO/AVC Duration : 1 h 38 min Bit rate : 3 000 kb/s Width : 1 920 pixels Height : 802 pixels Display aspect ratio : 2.40:1 Frame rate mode : Constant Frame rate : 24.000 FPS Color space : YUV Chroma subsampling : 4:2:0 Bit depth : 8 bits Scan type : Progressive Bits/(Pixel*Frame) : 0.081 Stream size : 2.07 GiB (77%) Writing library : x264 core 157 r2935 545de2f Encoding settings : cabac=1 / ref=2 / deblock=1:0:0 / analyse=0x1:0x111 / me=hex / subme=6 / psy=1 / psy_rd=1.00:0.00 / mixed_ref=1 / me_range=16 / chroma_me=1 / trellis=1 / 8x8dct=0 / cqm=0 / deadzone=21,11 / fast_pskip=1 / chroma_qp_offset=-2 / threads=25 / lookahead_threads=4 / sliced_threads=0 / nr=0 / decimate=1 / interlaced=0 / bluray_compat=0 / constrained_intra=0 / bframes=3 / b_pyramid=2 / b_adapt=1 / b_bias=0 / direct=1 / weightb=1 / open_gop=0 / weightp=1 / keyint=240 / keyint_min=24 / scenecut=40 / intra_refresh=0 / rc_lookahead=30 / rc=2pass / mbtree=1 / bitrate=3000 / ratetol=1.0 / qcomp=0.60 / qpmin=0 / qpmax=69 / qpstep=4 / cplxblur=20.0 / qblur=0.5 / vbv_maxrate=20000 / vbv_bufsize=25000 / nal_hrd=none / filler=0 / ip_ratio=1.40 / aq=1:1.00 Default : Yes Forced : No Color range : Limited Color primaries : BT.709 Transfer characteristics : BT.709 Matrix coefficients : BT.709 Audio #1 ID : 2 Format : AC-3 Format/Info : Audio Coding 3 Commercial name : Dolby Digital Codec ID : A_AC3 Duration : 1 h 38 min Bit rate mode : Constant Bit rate : 448 kb/s Channel(s) : 6 channels Channel layout : L R C LFE Ls Rs Sampling rate : 48.0 kHz Frame rate : 31.250 FPS (1536 SPF) Bit depth : 16 bits Compression mode : Lossy Delay relative to video : -5 ms Stream size : 316 MiB (12%) Language : French Service kind : Complete Main Default : Yes Forced : No Audio #2 ID : 3 Format : AC-3 Format/Info : Audio Coding 3 Commercial name : Dolby Digital Codec ID : A_AC3 Duration : 1 h 38 min Bit rate mode : Constant Bit rate : 448 kb/s Channel(s) : 6 channels Channel layout : L R C LFE Ls Rs Sampling rate : 48.0 kHz Frame rate : 31.250 FPS (1536 SPF) Bit depth : 16 bits Compression mode : Lossy Delay relative to video : -5 ms Stream size : 316 MiB (11%) Language : Italian Service kind : Complete Main Default : No Forced : No Text ID : 4 Format : UTF-8 Codec ID : S_TEXT/UTF8 Codec ID/Info : UTF-8 Plain Text Duration : 1 h 36 min Bit rate : 41 b/s Count of elements : 1047 Stream size : 29.2 KiB (0%) Title : FULL Language : French Default : Yes Forced : No Menu 00:00:00.000 : :00:00:00.000 00:08:44.833 : :00:08:44.833 00:15:28.458 : :00:15:28.458 00:24:00.833 : :00:24:00.833 00:32:25.958 : :00:32:25.958 00:39:18.042 : :00:39:18.042 00:50:42.833 : :00:50:42.833 00:57:33.167 : :00:57:33.167 01:06:16.458 : :01:06:16.458 01:13:38.708 : :01:13:38.708 01:22:02.458 : :01:22:02.458 01:29:32.333 : :01:29:32.333
17-12-2019, 09:21





Dites merci aux uploaders pour leurs travail, ça ne coûte rien et ça fait toujours plaisir